Police Story 2013 là tập phim thứ 6 trong series cùng tên do Thành Long thực hiện với vai trò sản xuất, đạo diễn kiêm diễn viên chính từ năm 1985 đến nay. Phần phim mới nhất bắt đầu từ một đêm trong một quán rượu, tất cả khách trong quán đều bị bắt ép làm con tin, trong đó có cả cảnh sát Chung Văn (Thành Long) và một cô gái tên Miêu Miêu (Cảnh Điềm). Chủ quán rượu Võ Giang bắt con tin nhằm mục đích yêu cầu thả một tên tội phạm khét tiếng bị giam nhiều năm. Tên tội phạm bí ẩn đó là ai, tay cảnh sát lão làng sẽ làm gì, kẻ chết người sống sẽ là ai?


Police Story 2013 1080p HDRip x264 AC3 SmY
“Jing cha gu shi 2013”

Câu Chuyện Cảnh Sát 6
[Hành Động – Võ Thuật]
(Thành Long, Lưu Diệp, Cảnh Điềm, Hoàng Bột…)


Ratings: 6.5/10 from 571 users








Code:

Police.Story.2013.1080p.HDRip.x264.AC3-SmY Video ID : 1 Format : AVC Format/Info : Advanced Video Codec Format profile : Main@L4.0 Format settings, CABAC : Yes Format settings, ReFrames : 2 frames Muxing mode : Header stripping Codec ID : V_MPEG4/ISO/AVC Duration : 1h 46mn *** rate : 3 686 Kbps Width : 1 920 pixels Height : 1 080 pixels Display aspect ratio : 16:9 Frame rate mode : Variable Frame rate : 25.000 fps Color space : YUV Chroma subsampling : 4:2:0 *** depth : 8 ***s Scan type : Progressive ***s/(Pixel*Frame) : 0.071 Stream size : 2.74 GiB (93%) Writing library : avc encoder v1.9 Audio ID : 2 Format : AC-3 Format/Info : Audio Coding 3 Mode extension : CM (complete main) Muxing mode : Header stripping Codec ID : A_AC3 Duration : 1h 46mn *** rate mode : Constant *** rate : 192 Kbps Channel(s) : 2 channels Channel positions : Front: L R Sampling rate : 44.1 KHz *** depth : 16 ***s Compression mode : Lossy Stream size : 146 MiB (5%)
Bài viết ngẫu nhiên cùng chuyên mục