Tây Du Kí : Mối Tình Ngoại Truyện - Châu Tinh Trì



Tên phim gốc: Journey to the West: Conquering The Demons / 西游•降魔篇
Tên Việt Khác: Tây Du Kí Thu Phục Thiên Ma
IMDB: Daai wa sai you chi Chui mo chun kei (2013) - IMDb
Đạo diễn: Châu Tinh Trì, Quách Tử Kiện
Kịch bản: Châu Tinh Trì
Ngày phát hành: 7/2/2013 (Trung Quốc), 22/2/2013 (Việt Nam)
Thể loại: Hài – Phiêu lưu – Giả tưởng
Thời lượng: 120 phút
Nước sản xuất: Trung Quốc
Hãng sản xuất:
* Bingo Group
* CJ Entertainment
* China Film Group
* EDKO Film


Các diễn viên chính:


* Văn Chương … Đường Tam Tạng
* Thư Kỳ … Bạch Cốt Tinh
* Hoàng Bột … Tôn Ngộ Không
* La Chí Tường … Hư Không công tử
* Lý Thượng Chính … Sa Tăng


Nội dung chính:


Một thế giới bị yêu quái quấy nhiễu, khiến người dân khổ hết chỗ nói. Thợ săn yêu quái trẻ tuổi Huyền Trang, gan dạ vì có niềm tin “cống hiến cho đại nghĩa” dẫn đường, liều hết mình và hàng phục một thủy quái, một trư quái cùng yêu quái của tất cả các yêu quái, Tôn Ngộ Không. Người mang họ theo làm đồ đệ, cảm hóa họ bằng tình yêu của mình. Trong khi đó, Huyền Trang cũng tự mình nhận ra ý nghĩa thực sự của bác ái. Nhằm chuộc lại lỗi lầm và cứu giúp dân thường, bốn thầy trò dấn thân vào cuộc hành trình Tây du đầy thử thách…




Format : Matroska
File size : 1.09 GiB
Duration : 1h 49mn
Overall *** rate : 1 426 Kbps
Encoded date : UTC 2013-02-21 09:03:09
Writing application : mkvmerge v5.5.0 ('Healer') built on Apr 6 2012 21:43:24
Writing library : libebml v1.2.3 + libmatroska v1.3.0
Video #1
ID : 1
Format : xvid
Codec ID : xvid
Duration : 1h 49mn
*** rate : 1 173 Kbps
Width : 720 pixels
Height : 324 pixels
Display aspect ratio : 2.222
Frame rate : 29.970 fps
Resolution : 24 ***s
***s/(Pixel*Frame) : 0.168
Stream size : 921 MiB (82%)
Audio #2
ID : 2
Format : AC-3
Format/Info : Audio Coding 3
Codec ID : A_AC3
Duration : 1h 49mn
*** rate mode : Constant
*** rate : 224 Kbps
Channel(s) : 2 channels
Channel positions : L R
Sampling rate : 48.0 KHz
Stream size : 76 MiB (16%)

DOWNLOAD NOW
Bài viết ngẫu nhiên cùng chuyên mục